<>/PageLayout/OneColumn/PageMode/UseNone/Pages 104 0 R/Type/Catalog/ViewerPreferences<>>> わが家のスマホルール」【小学生~高校生まで対応】 (TJMOOK), 20200211 : 「ちょっと検索!翻訳に役立つGoogle表現検索テクニック」, 20200216 : Solid Explorerへ乗り換えた(ESファイルエクスプローラ プロから), 20200325 : 「学習英英辞書の歴史 パーマー、ホーンビーからコーパスの時代まで」, 20200502 : 「YouVersion」で,神の名の載っている聖書を探した(YouVersion以外でも試行), 20200506 : BBN聖書放送とTWR360/Thru The Bible Global(音声解説付き聖書朗読), 20200509 : Google Playストアの「BBN聖書放送(Bible Broadcasting Network)」へのレビュー追加, 20200517 : iPhoneの優位性:アプリの供給,安定しているかも(とくに辞書アプリ)~Androidで使えなくなったアプリの一覧, 20200520 : 耳を塞がない(周りの音が聞こえる)Bluetoothヘッドホンの検討, 20200607 : PDFは固定レイアウトだけじゃなくリフロー(reflow)表示できた!, 20200907 : Bible.isのストリームURLがわかった!(Android4.0.4で再生可能に), 20200913 : スマホのラジオアプリで目覚まし(2) XiiaLive:起床後一定時間後に放送局を変える, 20200917 : 「羊飼いラジオ」(Hitsujikai Radio,Hitsujikai RS), 20201021 : インターネットラジオ(Pro)Alexandr Sotnichenko版, 20201112 : Community Radio Browserのデータベースを使うラジオアプリ「RadioDroid 2」,「Castbox」, 20201113 : SoundSeederでキリスト教関連ラジオ6局を各部屋スマホで同期再生する, 買った本~日本爬虫両棲類学会第57回相模原大会・SCAPARA(爬虫類と両生類の臨床と病理のための研究会)第17回ワークショップ共催にて, 「ハムスペ」に載ってるフェレットと亀のマンガ(2001年10月号~2006年11月号), 「NHKむしまるQゴールド大集合! 」, ・・・風雪の為に、垣も大分破損んだ。毎年聞える寂しい蛙の声が復た水車小・・・ 島崎藤村「岩石の間 128 0 obj 要約 1 研究の目的(問題の所在) 減価償却資産における「機械及び装置」及び「器具及び備品」の区分については、償却限度額の計算や租税特別措置の対象資産として用いられるなど、いずれの資産区分に該当するかについては幅広い場面で活用されている。 do ffmpeg -i %%i -f mp4 %%i.mp4  pauseを実行。拡張子なしの古いファイルは削除(実際は別のフォルダへ移動)。変換後の101個のMP4ファイルをAndroidへ持っていって(上位フォルダ名は漢字でなく英数字にして),EBPocketで開いたところ,無事動画が表示された。動画のファイルサイズの合計は123MB→69MBになった。, ちなみに,FFmpegの変換時に出力された内容から,元の動画ファイルの属性もわかる。, (例)Input #0, mpeg, from '05000100':  Duration: 00:00:14.88, start: 0.743156, bitrate: 357 kb/s    Stream #0:0[0x1e0]: Video: mpeg1video, yuv420p(tv), 320x240 [SAR 200:219 DAR 800:657], 340 kb/s, 29.97 fps, 29.97 tbr, 90k tbn, 29.97 tbc, EBPocketでは,登録辞書数が多いと,起動や検索がかなり遅い。搭載メモリが512MBと少ない BOOX C67ML Carta や BoyueT62D では起動途中で落ちるなど深刻。辞書ファイル自体はそのままで,グループ編集(Group#1,Group#2,・・・)で辞書タイプを分けることで,各々の登録辞書数を減らしたら,起動問題や串刺し検索(2度目以降)は解決した。もっとも,専用アプリ(計測技研)ではさすがにその問題はなく,安定して使える。また,「使用許諾条件」も気になるところだ。PC版で使った方が使い勝手はよさそうだ。, EBWin4なら(当方5年前に5万円で買ったAMD,メモリ4ギガのPCだが)十分速い。ただし,Android版で,2017-02-16の「1.37.0」で追加された「検索に一致した全項目表示」(全ての項目の表示)機能は大変便利なので,EBWin4にも追加してほしい気がする。(と思ったら,Windows版も更新されてた! 手動で新zipをVectorからダウンロードし,上書きインストールした。右下のステータスバーに「全ての項目」のチェックボックスが追加されてる! 当方,当初 2016/11/17 4.3.5 を使用してたので,気づかなかった!)   2017/02/08 4.4.1    複合検索ダイアログをモードレス化,    全ての項目の表示,    ステータスバーに前ページ、次ページボタン追加,他(略)   2017/02/14 4.4.2    連続表示/項目毎表示ボタン,辞書選択ComboBoxの幅調整2/8の更新履歴の説明に,「ステータスバーに全ての項目ボタン追加」ってのが抜けているかも。ちょっと探した。, あらためて探してみたら,下記が詳しかった。  http://baldhatter.txt-nifty.com/misc/2017/02/ebwin41-6be0.html  禿頭帽子屋の独語妄言 side A- # EBWin4の新機能「全ての項目」表示~その1  http://baldhatter.txt-nifty.com/misc/2017/02/ebwin42-f9a9.html  禿頭帽子屋の独語妄言 side A- # EBWin4の新機能「全ての項目」表示~その2  2017.02.12, 以下のサービスがあるようだ(未試行)。2015-12-19に調べたものをベースに,今回確認したことを記す。, (1) ドコモ公式/スゴ得コンテンツ( https://www.dcm-b.jp/ ), 「約180種類のコンテンツ使い放題」(2017-02-19時点)   https://www.dcm-b.jp/cs/contents/   カテゴリ一覧の「学習/辞書/教養」に「広辞苑forスゴ得」がある。料金は,月額380円。   https://www.dcm-b.jp/cs/cpsite.html?id=01cpn054001, ちなみに,2015年当時確認していた   http://kojien.mobi   http://sp.kojien.mobi (WiFi)   モバイル版「広辞苑」のうち,2つ目( http://sp.kojien.mobi )だけまだ生きていそうだ。というか,上記「広辞苑forスゴ得」のページで「ページのソースを表示」(Chrome)させたら, http://sp.kojien.mobi の機能を使ってるような感じだ。   http://sp.kojien.mobi/login_top.html   有料登録にて、検索機能をご利用いただけます。として,「ログイン方法」に,「docomoIDでログイン」,「au IDでログイン」,「MySoftBank認証でログイン」のボタンがある。   http://adto.jp/iwanami/view/s.php?a=472   【重要なお知らせ】マイメニュー引継ぎされたお客様へに,「本サイトはiモードからのマイメニュー引継ぎ対応サイトです。iモードで当サイトのマイメニュー登録を行っているお客様は、スマートフォンへ機種変更後も当サイトのマイメニュー会員が継続されております。」とあり,|1.スマートフォンにおけるメニュー名:「広辞苑」|2.ジャンル:メニューリスト > 便利ツール/写真/辞書/学習 > 辞書|3.提供コンテンツ概要(予定含む):現在iモードでご利用可能な| コンテンツは、全てスマートフォンでも利用可能。| ※ご注意※| スマートフォンでは、iモードでご利用の「Myワード」「検索履歴」の| 内容は継承されません。|4.価格:月額108円(初月無料)|5.対応OS:Android OS 2.1以上搭載のAndroid端末といったことが書かれている。, 当時はこのdocomo「dアカウント」( https://id.smt.docomo.ne.jp/ )を取得して月100円+税 で広辞苑を使うことも考えたが,WEBブラウザでいちいち単語入力して検索するのは遅いし,使いづらいと考え,結局,amazon appsで計測技研のAndroidアプリを購入することに決めた次第。, 2015年当時 https://www.iwanami.co.jp/hensyu/degi/mobile/mobile.html に説明があったはずなのだが,今はリンク切れ(Not Found)となっている。岩波書店のトップ( https://www.iwanami.co.jp/ )から検索しても見つからない。, 広辞苑AndroidアプリをWindows上で使う手法もある。Windows7時代にBlueStacksを使用していた時期があった(2014-05-11~2015-05-11)。   http://midorigame-ferret.cocolog-nifty.com/blog/2015/02/kindle-for-pc-b.html   20150201 : Kindle for PC 日本語版ついに登場/BlueStacks App Playerの解像度変更(レジストリ)でのKindle/巨大Android「HP Slate 21」など, 結局,Kindle for PCが日本語書籍にも対応(2015-01-21)したことから,BlueStacks上でKindleのAndroidアプリを使う意味がなくなり,1年毎の有料会員を更新しなかった。そして,Windows8を購入してHDD完全初期化し新規インストールした際(2015-05-16)に,BlueStacksはインストールしなかった。その後Windows10化(2016-07-22。アップグレードではなくカスタムで新規インストール)した際もBlueStacksはインストールしなかった。, BlueStacksは,無料会員だと毎日勝手にアプリが追加インストールされるため,別に(専用に)Googleアカウントを取得して使っていたが,amazon appsやKindleならIDが別管理なので問題はなかった。amazon appsの広辞苑Androidアプリも同じ。とはいえ,鬱陶しくて結局は有料会員になったのだが。, 今更BlueStacksをインストールしなおして使う気にはなれなかった。月2ドルだからそれほど高額という訳でもない。無料会員で勝手に追加インストールされた不要アプリは消せばよいだけの話だ。Google Playも以前と違って,購入済みアプリも一覧から削除できるようになっているし。ただ,まぁ,エミュレータ起動は若干手間がかかるし,PC版よりAndroid版の方が圧倒的に使い勝手がよい,という訳でもない点かな。, あらためて探してみたところ,下記の記事があった。BlueStacksもバージョンアップして,機能強化されたらしい。   https://nelog.jp/bluestacks-2-install   PCでAndroidをマルチタスクで使えるエミュレーター「BlueStacks 2」のインストール方法|Windowsでの使い方   2016/10/7, 【7.その他の参考資料】http://baldhatter.txt-nifty.com/misc/禿頭帽子屋の独語妄言 side Aより  http://baldhatter.txt-nifty.com/misc/2015/06/ebwin4-69ae.html  禿頭帽子屋の独語妄言 side A- # EBWin4、地道にバージョンアップ継続中  2015.06.22  「LogoVista版タイトルの外字対応が、Jammingよりだいぶマシ」    http://baldhatter.txt-nifty.com/misc/2016/07/ebwin4web-e476.html  禿頭帽子屋の独語妄言 side A- # EBWin4でWeb検索―実はなかなか便利だった  2016.07.06    http://baldhatter.txt-nifty.com/misc/2016/07/logophile-7e5c.html  禿頭帽子屋の独語妄言 side A- # Logophileのみ対応している辞書タイトル  2016.07.10    http://www.buru3.com/electronic-dictionary/  スマホやiPhoneを電子辞書化する。 - 中国語を学ぶ-ん, http://www.buru3.com/中国語を学ぶ-ん - あまり考えずに楽しんで学ぶ中国語より  http://www.buru3.com/ebpocket-ios/  EBPocketでいろんな辞書を活用。 Wikipediaのオフライン辞書化も。 - 中国語を学ぶ-ん    http://www.buru3.com/ebpocket-android/  EBPocket(Android編) - 中国語を学ぶ-ん    http://www.buru3.com/cross-search/  アンドロイドで、EBPocketやMDict、その他もろもろ横断検索!ランチャーアプリで更に使いやすくなるよ。 - 中国語を学ぶ-ん, http://kazuo.fc2web.com/dic/ddwin2.htm更に極めよ「EPWING/PDIC辞書」※ 目次より:「EPWING辞書作成、変換ツール」,「EPWING変換スクリプト集」,「EPWING、PDIC変換スクリプト各種辞書」,「変換トラブル」,「EPWING辞書にコーパスと文法書を加える」,「EPWING辞書軽量化」,「DDwin, PDIC辞書検索のコツ」,「複数の辞書の圧縮をした際のデータサイズの例」,「Meadow, Emacs」,「変換スクリプトを作りたい人向け」など。, http://www.motorwarp.com/koizumi/dictionalies.html辞書だらけ作成:2008/10/01,更新:2008/12/11,2009/07/14※ 目次より:「フリーの辞書検索ソフトと辞書,オンライン辞書・事典」。リンク集。, http://home.att.ne.jp/blue/onback/On the Backstage 翻訳者のための情報源より  http://home.att.ne.jp/blue/onback/biblio/dictionary.html  On the Backstage 翻訳者のための情報源 【書誌(語学編)】辞書  ※ 目次  |1. 」, ・・・価格の変動でだんだん欠損になって、どうにもしかたなくなったのです・・・ 宮沢賢治「ポラーノの広場 「しづらい」と「しずらい」、どちらが正しい使い方なのでしょう?読み方が同じだけに、間違って書かれることも多い語句です。ここでは「しづらい・しずらい」の正しい使い方を詳しく解説していきます。どちらが正しいのか迷ったときのために、効率的な覚え方もご紹介しましょう。

<>/ProcSet[/PDF/Text]/XObject<>>> 私は、ルーブル美術館所蔵の「サモトラケの二ケー」像が、子どもの頃から大好きです。 頭部と腕がないことが、かえって、なんとも言えない動的魅力を醸し出しているように思えてなり... 原発事故についての興味からいろいろ読んでいるのですが、ひとつ疑問が。 核融合あるいは核分裂の際に生ずる「質量欠損」は、一体何が「減って」しまったのでしょうか。 まさか素粒子... 質量分析計で測定した Li の質量は6.01512 amu であった。Li の質量欠損をamu 単位で示しなさい。ただし陽子、中性子、電子の質量はそれぞれ1.007276 amu,、1.008665 amu、 0.000549 amu である。(Liの質量... gooIDでログインするとブックマーク機能がご利用いただけます。保存しておきたい言葉を200件まで登録できます。, 太宰治「おさん 106 23

」, ・・・惜しい哉羽目板だから破損したかあるいは雨晒しになって散三になって・・・ 内田魯庵「淡島椿岳 」, 内田魯庵「淡島椿岳 」, 宮沢賢治「ポラーノの広場 →後者「アジア・太平洋戦争」何だかヘン。発音もしにくい。大東亜戦争が〈日本帝国主義の立場から〉最も適切だが、これが endobj <<80AF82EABF210E6F6C081094048D012F>]/Info 105 0 R/Prev 283374/Root 107 0 R/Size 129>> のように拡張子が無いファイル)を,拡張子なし→拡張子.MPGに変名してもダメ(Windows10では.MPGに変名すると,エクスプローラから単独再生可能。また,EBWin4からも問題なく利用できる。Logophileでは動画再生不能になるため,元のファイル名のままとすること)。, 結局,動画変換ツール(FFmpeg)を使って,MPEG1(ファイルに拡張子なし)→MPEG4(拡張子.MP4)に変換する必要があった。また,フォルダ名も日本語(漢字)を使うとダメで英数字(ローマ字)に変更した。なお,動画以外の音声(音楽)・写真は問題なし。   http://ebstudio.info/manual/EBPocket_android/81faq.php   EBPocket for Android FAQに,|Q.

琉球伝統芸能デザイン研究室や琉球びんがた普及伝承コンソーシアムなどで構成する「Una―」プロジェクト実行委員会が実施した。同プロジェクト実行委員長の山内昌也県立芸術大学教授が、第二尚氏の歴代国王が眠る墓前に、首里城再建への思いとともに歌, 東京都渋谷区で俳優の伊藤健太郎容疑者(23)がバイクと衝突し、ひき逃げした疑いで逮捕された事件で、伊藤容疑者の車の左前部が破損していたことが30日、警視庁への取材で分かった。Uターンして対向車線へ入った際、直進のバイクと衝突しており、警視庁は伊藤容疑者の前方不注意が事故原因とみて調べている。 107 0 obj 興味ある言語のレベルを表しています。レベルを設定すると、他のユーザーがあなたの質問に回答するときの参考にしてくれます。, 相手に通知されません。 (11/15更新). endobj mata , sokonai kizutsukeru koto .

startxref

CD-ROM版、DVD-ROM版辞書一覧  |3. 113 0 obj endobj 」, 島崎藤村「岩石の間 endstream <> 警視庁は同日午前、東京地検に送検した。伊藤容疑者を乗せた捜査車両は、カメラの, gooIDでログインするとブックマーク機能がご利用いただけます。保存しておきたい言葉を200件まで登録できます。, 泉鏡花「一景話題 ta ・ hason : senjitsu , koujou no kikai ga hason si ta . Check TN006/オーム電機)(追記9/23), 20060923 : 亀の甲長を測るには ~ 曲がり尺(L字型定規)を2つ組み合わせてノギス代わり, 20060930 : フェレットとの散歩の状況/亀の生息地を地図にプロットする(ハンディGPS)(2) GPSホルダーを作る, 20060930 : 亀のラジオ番組をタイマー録音しメモリオーディオで聴く(2)Podcast+iTunes+iTunes Agent (10/1更新), 20061010 : 「ハムスペ」に載ってるフェレットと亀のマンガ(2001年10月号~2006年11月号), 20061020 : 買っちゃったよ,特売メモリオーディオ(X-Bar XB800 四千円也)(フェレットをPodcast+iTunes+iTunes Agent), 20061022 : フェレットとの散歩の状況/亀の生息地を地図にプロットする(ハンディGPS)(3) アニメーションGIFで軌跡表示, 20061029 : メモリオーディオ(MP3プレーヤー/デジタルオーディオプレーヤー)の比較サイト, 20061101 : FMトランスミッター内蔵 SDミュージックプレーヤー my mint HS.Z01, 20061119 : 亀の音楽で朝起きる ~ SDクロックラジオ Qriom SCR-175SD, 20061201 : 最近のポッドキャストのお気に入り(科学番組・書籍紹介・公開講座・ニュース・朗読)(2006-11-30), 20061207 : 「充電式 使い捨てないカイロ eneloop」(サンヨー)を注文した!, 20061212 : 届いた!「充電式 使い捨てないカイロ eneloop」(サンヨー)(冬のフェレットの散歩に最適な懐炉), 20070128 : 背中に懐炉で暖かく ~風邪引き中年の工夫~ フェレットの散歩時だけでなく日中も背中カイロで暖かく過ごすのだ。, 20070201 : 続)特売メモリオーディオ ~ 4機種の使い分け。便利な点と不便な点が見えてきた, 20070202 : NHKカルチャーアワー人と自然「昆虫と植物の世界」:第16回(2007-01-22)木村義志/外来動物の現実と社会 で,アカミミガメ,ワニガメ,カミツキガメなどの話, 20080630 : 番外編:歩きながら聴く聖書「聖書 新共同訳 旧約聖書続編つき MP3版」, 20080701 : 番外編:歩きながら聴く聖書2~オンライン聖書テキストをMP3化する, 20080705 : 昨年2007年のフェレット散歩日数を数えてみた(晴れの日8割は散歩に出てたことが判明), 20080706 : 番外編:ゼンマイ時計(スケルトンタイプのゼンマイ式アラームクロック/6歳児用組み立て式ゼンマイ振り子時計スケルトン/学研大人の科学・14世紀型棒テンプ重錘式時計・組立式), 20080708 : ブログ設定変更。及び トラックバックの安全性確認のために,事前に(アクセス前に)ソース表示できるサイトを調べてみました。, 20080826 : 2008-08-23~24,第10回日本カメ会議参加&発表報告「ミドリガメの謎」, 20090126 : 番外編:歩きながら聴く聖書3「新世界訳聖書 オーディオファイル」, 20110816 : 「Collinsコウビルド米語版英英和辞典」ソフト欠点解消(Logophile他), 20110819 : 「Collinsコウビルド米語版英英和辞典」ソフト欠点解消2(設定を変えるだけ), 20110824 : 亀水槽のフィルター新調(水作エイトM×2→水作ニュースペースパワーフィットM+スペースエアフィットM), 20110826 : 番外編:歩きながら聴く聖書4:容量の小さい小型MPプレーヤー用に変換する, 20110910 : 番外編:Windows7でレガシーデバイス(古い周辺機器)を使う, 20111106 : ルート・目印確認!埼玉県立川の博物館へ鉢形駅から徒歩のコース(第13回日本カメ会議2011年12月10日・11日), 20111204 : 今度は近道ルートを試してみた:続)ルート・目印確認!埼玉県立川の博物館へ鉢形駅から徒歩のコース:近道ルート(第13回日本カメ会議2011年12月10日・11日), 20150113 : 続)Collinsコウビルド米語版英英和辞典(今度はKindle版), 20150123 : 続)英英和辞典・英英辞典(Kindle・Android版比較), 20150124 : 続2)英英和辞典・英英辞典(Kindle・Android版比較), 20150126 : Kindle Paperwhite 2012のファームウェアのバージョンダウン(5.4.4.2→5.3.9)について, 20150201 : Kindle for PC 日本語版ついに登場/BlueStacks App Playerの解像度変更(レジストリ)でのKindle/巨大Android「HP Slate 21」など, 20150621 : 6/25(木)22:55NHK総合「所さん!大変ですよ」にミドリガメ登場, 20150623 : 格安スマートフォン freetel priori2 3G版 FT142A と LTE版 FT151A との違い:SDカードの扱い,PCとのUSB接続(Android 4.4.2 と 4.4.4 との違い),「b-mobile SIM 高速定額」による通信速度,その他, 20150624 : 補足:freetel priori2 3G版 FT142A と LTE版 FT151A との違い:「b-mobile SIM 高速定額」による通信速度, 20150625 : 補足その2:freetel priori2 3G版 FT142A と LTE版 FT151A との違い:「b-mobile SIM 高速定額」による通信速度(生データ), 20150626 : 感想:6/25(木)22:55NHK総合「所さん!大変ですよ」にミドリガメ登場, 20150708 : 英語学習:Flixsterで英語字幕をテキスト化する(映画「パシフィク・リム」), 20150709 : ヴァン・ヴォークト「宇宙船ビーグル号の冒険」の原著をKindleで読む, 20150820 : 新世界訳聖書(JW Library)の日本語化対応を機に,目の疲れにくい電子ペーパー(E-ink)式のAndroid端末を探す(1)~OnyxBooxC67ML_Carta, 20150821 : 続)新世界訳聖書(JW Library)の日本語化対応を機に,目の疲れにくい電子ペーパー(E-ink)式のAndroid端末を探す(1)~OnyxBooxC67ML_Carta(訂正あり), 20150825 : BOOX C67ML_CartaのファームウェアV1.7.3 2015-08-19への更新と再インストール(訂正あり), 20150829 : JW Library 1.5.1_210/1.5.2_212(Android版)のデータの保存先や挙動について, 20150830 : BOOX C67ML_Carta V1.7.3 アプリインストール手順詳細, 20150831 : 電子ペーパー(E-ink)式のAndroid端末を探す(2)~BoyueT62D, 20150904 : Boyue T62D(T62+)で,Googleドライブ問題解決(ESファイルエクスプローラーのクラウド機能), 20150906 : 続)Boyue-T62D (T62+) で,Googleドライブ解決(File Commander + Cloud), 20150914 : BOOX C67ML_CartaでアプリとデータをSDHCカードへ移動する(root化後Link2SD Plus導入), 20151010 : Amazonアプリ・アプリストア・Androidアプリストア・ショッピングアプリの違いと2千円クーポン, 20151010 : FREETEL SIMとSMARTalkを組み合わせて留守番電話機能を実現する(音声を添付したメールを自動送信), 20151111 : 第3回淡水カメ情報交換会参加と環境省ニホンイシガメの輸出規制のパブリックコメント(2015年11月11日まで), 20160301 : NHK地球ドラマチック「カメ 3億年の進化の旅」NHKオンデマンドで2016/3/5までなら見れるよ, 20160311 : 誤入力を自動訂正してくれる「Fleksy」(フレクシー),癖と注意点, 20160312 : JW Libraryの肥大化問題解決のため,Boyue T62D でLink2SD Plusをつかうべくroot化とGooglePlay導入(成功)。しかし・・・, 20160313 : 楽天KoboのAndroidアプリが勝手にログアウトされ,ダウンロード済み書籍と栞が消えてしまう件, 20160326 : 英語学習:Flixster v2.6.1で英語音声&英語字幕でダウンロード(映画パシフィック・リム), 20160424 : 記事紹介:2016-04-22環境省:野生ミドリガメの生息個体数の推定/アカミミガメ対策普及啓発ツールの公開「かめぐるみ」他, 20160501 : アルキキを試し,Podcast,読み上げ対応RSS Readerに至る(Android), 20160502 : 続:アルキキを試し,Podcast,読み上げ対応RSS Readerに至る(Android):詳細・補足編, 20160506 : フェレット・カムイ(4代目)の思い出(2): 2016-03-06(日),電車で移動中にメモしたもの, 20160508 : フェレット・カムイ(4代目)の思い出(3): お迎え(2009-01-03)からジステンパー予防接種後の皮膚病からの回復、GW後(2009-05-05)まで, 20160514 : フェレット・カムイ(4代目)の思い出(4): 2009-05-06~2009-10-09, 20160515 : フェレット・カムイ(4代目)の思い出(5): 2009-10-10~2010-04-17, 20160520 : 偽アプリに一杯食わされた:Amazon Apps「Fleksy + GIF Keyboard」(開発者ILINK), 20160522 : JW Broadcasting MP4字幕再生成功(Media Player Classic/Windows8.1), 20160523 : JW Broadcasting MP4字幕再生&倍速再生成功(VLC for Fire/VLC for Android), 20160526 : JW Broadcasting MP4字幕抽出成功(MP4BOX,Windows), 20160528 : jw.orgで字幕テキストの有る動画(MP4),および,字幕ファイル(SRT)の不要部分の削除手法, 20160604 : Kindle Fire 2015 でKindle本をSDカード保存できるようにするため5.1.4へ手動アップデートする, 20160605 : JW Library 1.7.1 起動せず。Kindle Fire 2015 の Fire OS 5.1.4アップデート後に?(訂正あり), 20160609 : Kindle Fire 2015(第5世代) で,PC(Windows8.1)認識不能(USB接続)が直った, 20160616 : JW Broadcasting MP4字幕再生成功(iTunes/Windows8.1), 20160616 : JW Broadcasting ビデオ・オンデマンド字幕表示成功(Windows8.1 IE11,Chrome), 20160616 : JW Library 動画のファイル名一覧とタイトル(題名),アルバム名の一覧を作る, 20160618 : 復旧:JW Library 1.7.1起動せず(Kindle Fire 5.1.4), 20160625 : JW Study Aid 4.0.2 (Android) を試してみた(EPUB対応), 20160627 : 続2:アルキキを試し,Podcast,読み上げ対応RSS Readerに至る(Android)のその後:朝日新聞RSS一覧~本文対応,ほか, 20160628 : 続3:アルキキを試し,Podcast,読み上げ対応RSS Readerに至る(Android):朝日新聞以外のニュースのRSS, 20160709 : DSi「睡眠記録めざまし時計」からスマホアプリ(Android)への移行検討:「Sleep as Android」が良さそう, 20160714 : フェレット・カムイ(4代目)の思い出(6): 2010-04-18~2010-08-29, 20160730 : 亀水槽のフィルター新調2~スポンジフィルターにカバーを付ける, 20160814 : フェレット・カムイ(4代目)の思い出(7):2010-09-05~2010-12-26, 20160815 : フェレット・カムイ(4代目)の思い出(8):2011-01-02~2011-12-29, 20160818 : フェレット・カムイ(4代目)の思い出(9):2012-01-03~2012-08-16, 20160823 : フェレット・カムイ(4代目)の思い出(10):2012-08-17~2012-09-22 社内報への掲載,尻尾ハゲ,散歩中の「星ナビ」での天体観測, 20160824 : フェレット・カムイ(4代目)の思い出(11):2012-09-24~2012-12-31 右目も白内障。Kindle Keyboardと洋書, 20160827 : フェレット・カムイ(4代目)の思い出(12):2013-01-06~2013-06-30 インフルエンザ,キャリー扉破壊,なめフェレ化進行,失禁,副腎疾患,お散歩用ヘッドライトの修理,亀の脱走防止柵強化(フェレット侵入防止兼用), 20160828 : フェレット・カムイ(4代目)の思い出(13):2013-07-06~2013-09-29:エアコン停止に備えて冷却材設置,砂が飛び散らないようにダンボールでケージを覆ったこと,等, 20160829 : フェレット・カムイ(4代目)の思い出(14):2013-10-06~2014-02-22:散歩中のへたりこみ,インド綿マットの失敗,背中の傷,大食,金曜日世話をしないで寝てしまうことが多くなり後の悲劇に,シリーズのまとめ, 20160912 : 新聞記事:アカミミガメの肉を具にしたレトルトカレー/ 書籍:『切らずに1枚で折る 爬虫類・両生類折り紙』, 20160914 : 書籍紹介:『亀のジョンソン』『カメリ』『竜宮城は二つあった ウミガメの回遊行動と生活史の多型』, 20160920 : 書籍紹介:「外来種は本当に悪者か? 新しい野生 THE NEW WILD」, 20161019 : 「獣医ドリトル」コミック版・登場動物一覧~ミドリガメ(アカミミガメ)とフェレットも結構載ってる, 20161027 : 解決:JW Library8.0がKindle Fire 2015(第5世代)で動かない, 20161103 : 爬虫類用蛍光灯とバスキングライト,まったく新しい取り付けを考案(延長アダプタと二股ソケットで分岐しアームライトに取り付ける), 20170211 : BoyueT62Dファームウェア更新で起動しなくなった際の復旧手順, 20170212 : 「エホバに歌う 新しい歌」136-154を,製本直送.comで製本化(パラメータの紹介), 20170213 : 製品同梱されてないデジタルカメラのマニュアルを,製本直送.comで製本化(ニコン COOLPIX W100,キャノン IXY 130), 20170214 : Kobo Touch入手。洋書で辞書とハイライトを,Kindle等と比較, 20170217 : 6インチタブレット用安全ストラップ(Security Hand Strap), 20170219 : 広辞苑を使う:Androidアプリ(2社),EPWING版(WindowsやAndroidで使う),ほか, 20170221 : 「ニンテンドー3DSガイド ルーヴル美術館」~気になる作品「アイン・ガザルの像」紀元前7000年頃, 20170223 : 英単語「見出し語当てゲーム」なら,「My Word Coach」(DS),「Test Your English」シリーズ(Android),など, 20170224 : 塩分補給に「ヘルスワイズ シーソルト(詰替え用)」が粒が大きく,持ち運びやすい, 20170225 : 「Twilight」へ「超ブルーライト削減」から乗り換え(Android), 20170226 : 海外版DSソフト購入:amazon.comで個人輸入代行業者を使う/海外ショップの利用, 20170227 : 英単語「見出し語当てゲーム」その2:「futureU」と「My SAT Coach with The Princeton Review」(Nintendo DS), 20170228 : 「見出し語当てゲーム」その3:「意味までわかる 大人の熟語練習 角川類語新辞典から5万問」,「読みトレ」(Nintendo DS), 20170301 : JW Broadcasting MP4字幕再生成功(VLC/Windows10), 20170303 : Google本なら洋書を(購入しなくても)全文検索できる。和書もいずれ追随?, 20170304 : オンライン辞書の横断検索(英和・英英):「terrapin」を例に, 20170306 : FAX専用機はプリンタの代わりになるか? (Panasonic KX-PD604D), 20170308 : MP3プレーヤー廃棄と「音楽フォルダプレーヤー(Music Folder Player)」,「天下一読高級版(Moon+ Reader Pro)」,「Speaker for RSS」(Android), 20170309 : 2,980円で中古のKindle Paperwhite(WiFiモデル,2013年式)入手, 20170311 : 食べてみた。アカミミガメのケイジャンカレー(アメリカ南部風), 20170408 : 亀の煎餅(せんべい)~実は意外に歴史のある菓子だった(1862年,江戸は文久二年), 20180113 : オンライン辞書の横断検索アプリ(「All英語辞書, English ⇔ Japanese」:COBUILD英英,Cambridge英英和,Weblio,英辞郎,ほか英和・英英), 20180122 : Google Play ブックスの読上機能に驚く(Kindle+TalkBackより上だ), 20180123 : 目に優しいグレースケール(モノクロ画像)をAndroidやWindowsで, 20180124 : ニッケル水素充電池の容量を測定することのできる充電器「MiBOXER C4」。100mA刻みで800mAまで指定可能。, 20180125 : ウイルス対策ソフトのバグで端末初期化(全アプリ・データの再インストール)を余儀なくさせられた, 20180126 : 最新カプセルホテルにはACコンセントなくUSB充電口があるだけだった:USB単三充電器兼モバイルバッテリー, 20180128 : Cambridge英英和辞典をMoon+Reader(天下一読)で, 20180130 : FSKARENがBOOX C67ML Cartaに合うようだ, 20180203 : SH-05E~2千円の中古スマホでトーキングクロック(音声時計), 20180204 : ToDoリスト(Google Tasks連携)のAndroidアプリ「When.Do」:階層化・折り畳み機能あり!, 20180205 : スマートフォン「脅威が見つかりました」FotaProvider:Android/Autoins.AK, 20180210 : 「Darker Pro」と「Twilight Pro」,「超ブルーライト削減」の比較(Android), 20180211 : Googleプレイブックス「オーディオブック」を初購入~宮沢賢治74作品34時間を750円で, 20180212 : オーディオブック以外に朗読を聞く方法(「宮沢賢治」で。「音声同期Epub」,YouTube,ほか), 20180214 : Android5.0.2/4.2.2/4.0.4での電子書籍対応状況を確認(Google Playブックス・朗読対応/Kobo/Kindle), 20180215 : 3DSのフェレット・ゲーム「かわいいペットとくらそう! わんニャン&ミニミニアニマル」, 20180216 : 3DSテーマ「THE FERRET」(Artlist Collection), 20180218 : Androidスマートフォン再インストール:FREETEL Priori2 3G(FT142A)。富士通 ARROWS X F-10D, 20180219 : Android端末選定:「デフォルト書き込みディスク」がSDカードを選べるかどうかも重要だ, 20180220 : 広辞苑を使う(2)月額制「ウルトラ統合辞書」「ATOK Passport プレミアム」, 20180223 : 1~3分で測定可能な,電池の要らない体温計~水銀タイプでなく,薄型で測定時間が短い。ほか,手回し発電機内蔵の電子体温計とか。, 20180225 : Google Play ストアに有るアプリの更新履歴や旧版はどこ?(Android4.0.4用アプリを探す), 20180228 : パタパタ時計(AUTO FLIP CLOCK)~視認性が良く,音の静かな時計を求めて(ベッドサイド), 20180301 : 夏,頭が涼しい枕の工夫(Air InPilow /扇風機!), 20180303 : シャープペンのこだわり~「クラッチポイント」,「ダブルチャック」,「トップチャック」,「ツインチャック」,「先端チャック方式」, 20180304 : 画像非表示,2画面表示可能なWEBブラウザ「Dual Browser」(Android4.1以上), 20180307 : Amazonカスタマーレビューへ投稿:ARROWS X F-10D docomo [Black], 20180311 : aGrepとGoogleDrive(Android:全文検索),KWIC Finder(Windows), 20180316 : 踏み抜き防止インソール中敷&小指保護樹脂先芯入り安全靴,それと加水分解の話, 20180317 : docomoのガラケーをスマホへ移行。ヘッドホンの話を少々。, 20180320 : 旅行で持っていった電子機器(約3キロ。1キロは減らせたなぁ), 20180321 : Cambridge英英和辞典を,Windows10アプリやChromeの文字列範囲指定→マウス右クリックで使う, 20180325 : Cambridge英英和辞典を「サポテキ」(SupportText)で, 20180326 : Google Play ストアに有るアプリの更新状況をチェックする(Wish Registry), 20180328 : Cambridge英英和辞典をWindows10で(その2)Chrome拡張機能「Search Center」, 20180331 : PCからAndroidをリモート操作「Vysor」。ほか,Mobizen,MirrorGo,AirDroid,TeamViewerなども試した, 20180401 : 読書に利用できるサイトの試行(1)Readee(続):PCで使うための周辺ソフトの価格比較, 20180403 : KindleバージョンとAndroidバージョンとの対応:米国住所のアカウントでGoodreadsのボタン・機能表示のできるKindleアプリが使えるAndroidバージョンはどれから?, 20180415 : Cambridge英英和辞典をWindows10で(その3)「QuickAction」と「EBWin4」, 20180416 : 「パシフィック・リム:アップライジング」 (Pacific Rim Uprising)を見てきた。, 20180422 : 「パシフィック・リム:アップライジング」 (Pacific Rim Uprising)のノベライズ版読了。読み上げ機能の考察。, 20180427 : 楽天の読書管理アプリ「Readee」の海外展開はどうなっているのだろう?, 20180428 : ウイルス「TrojanDownloader:JS/Jesdow.B!url」が,Windows10標準機能で検出された, 20180504 : Google純正のToDoリストアプリ(Android)が登場。でも,ダメだった。階層化に対応していない。, 20180508 : スマホのWiFi不調のときのチェックリスト(Android), 20180509 : ウチにも来た偽装メール「【楽天市場】注文内容ご確認(自動配信メール)」, 20180516 : Google Play ストアに有るアプリの更新状況をチェックする(DiffBrowser), 20180517 : FREETEL SIMサイズ変更と速度調査(FREETEL節約モードはLTEより3Gが高速), 20180520 : Qriom YVR-R301(AM/FM RADIO RECORDER)を姪にゆずった, 20180528 : Google Playでアプリ選定の際の注意点~「鏡」アプリを例に, 20180529 : レンジでゆで卵(4個タイプだが,3個タイプと同じくらいの高さで使い良い), 20180602 : 「Kindle for the Web」の無料サンプルを,Pocketアプリで読み上げる, 20180606 : 端子スライド型 マルチバッテリー充電器(YIBO YUAN LCD UNIVERSAL CHARGER MODEL:SS-5), 20180619 : Gmail添付ファイル受信不能→設定/アプリで「データ消去」・再設定で復旧。, 20180620 : docomo系MVNOならエリアメール(緊急速報)対応している?, 20180630 : Speaker for RSSが非公開になった(対応策は2つ), 20180702 : テキストエディタのマクロを使わず,Windowsの標準コマンド「findstr」を使った手法を追加(jw.orgで字幕テキスト抽出後の処理), 20180705 : 単三2本で作動する小型ワープロ OASYS Pocket(オアシス・ポケット), 20180707 : 父にKindle Fireを譲る(裏面に説明を書いたシールびっしり!), 20180712 : 時短ビデオ再び:Chrome拡張機能「Video Speed Controller」, 20180714 : Androidスマートフォン上でKindle本をAlexaで読み上げ可能になった(課題あり), 20180715 : Google Playブックスでしおり,メモ,ハイライトの一覧をファイルに保存する, 20180716 : 「ハヤカワ文庫SF総解説2000」で読みたい本・再読したい本の一覧, 20180720 : Terry Brooks 「Magic Kingdom for Sale--Sold!

Cold Leading トリック 5, ポケモンgo マタドガス スーパーリーグ 24, Vpn接続 Wi Fi 切れる 44, エドガー ケイシー ダイエット 11, 三軒茶屋 赤鬼 ブログ 4, アルセウス 配布 裏id 8, 続木美香 ショップチャンネル 退社 10, ポケモンxy ラプラス 育成論 7, 姫路 新店舗 美容院 7, フィッシャーズ マサイ 服 19, スカーレット 花 花言葉 40, まつ毛パーマ 癖 つく 10, ミサイルマン 西代 結婚 18, オグデン モロー アバター 6, ハイキュー 東京 代表決定戦 フル 12, 極真 大分 分裂 13, 私のおじさん 韓国 キャスト 4, スタイル ズ 荘の怪事件 感想 16, バイリンガール 炎上 2ch 55, ブローニング マクサス スコープ 30, 鈴木園子 パパ活 文春 37, 2009 Wbc 打率 8, 沢田慎 山口久美子 結婚 6, Cbc 永岡 結婚 相手 15, 快速 姫路行き 停車駅 5, キャプテン翼 漫画 無料ダウンロード 22, Mozu 1話 Dailymotion 43, おのだ 世界一周 ルート 13, ヒロアカ 嫌われ 夢小説 43, Iiyama マウスコンピュータ 違い 4, 福岡 桂川町 シーグラス 12, Vocal Synth2 使い方 13, 白石麻衣 私物 アクセサリー 11, スカイリム 魔法 弱い 10, 舌 ピ 静脈 4, 真 雀鬼 17 4, Unidays 学校 ない 21, 探偵ナイトスクープ 神回 レイテ島 10, 火ノ丸相撲 冴ノ山 堀 7, Ark レアフラワー ジェネシス 49, 青島 室井 関係 16, 鈴鹿サーキット 割引 生協 32, ポケモンgo アクティブユーザー 2020 12, 13th Netflix 感想 5, 白髪染め 市販 黒くなりすぎ 15, はためく 漢字 意味 7, " />
简体中文EnglishBahasa Indonesia日本語한국어ພາສາລາວBahasa MelayuไทยTiếng Việt

108 0 obj

endobj 質問者のみ、だれが「ちがうかも」したかを知ることができます。, @ pineappledango songai : songai hosyou ・ songai wo koumuru ( son gai wo koumuru ) ・ tadai naru songai wo koumuh! « 6インチタブレット用安全ストラップ(Security Hand Strap) | 欠損(けっそん)とは。意味や解説、類語。[名](スル)1 物の一部が欠けてなくなること。「器物が欠損する」2 決算上の損失。赤字。「大きな欠損を出す」 - goo国語辞書は30万2千件語以上を収録。政治・経済・医学・ITなど、最新用語の追加も定期的に行っています。 %���� @\�hYn���LI&��J%|d�W�l*�$��UU5�~UMl�Q*�ΔdW��TF�n;��q���w� ��m�!���Tlo׊�����[�c�����'c��B��:g��Hs���{�z�ǀ=�Ѭ���ѝ� stream 」, 葉山嘉樹「淫賣婦 <> 広辞苑の動画が再生できません。|A.|広辞苑の動画は、EPWINGの形式のままでは再生できません。|オリジナルのMOVIEフォルダにある全ファイルを、|何らかの動画変換ソフトで、.mp4または.m4v形式に変換する|必要があります。|なお、拡張子の.mp4はそのままつけてMOVIEフォルダに転送してください。||辞書のパスに漢字(例:"広辞苑")を使用した場合、動画等の|マルチメディアデータのリンクを実行できません。 |辞書のパス名を英数字(例:"KOJIEN")に変更してください。と書いてあるとおり。, 動画変換手法は,   http://d.hatena.ne.jp/riocampos+tech/20130515/p1   広辞苑第六版DVD(EPWING)の動画をまとめて変換するrubyスクリプト    - 別館 子子子子子子(ねこのここねこ)   2013-05-15を参考にした。FFmpegを入手すれば,あとはrubyでなくてもWindows標準機能(バッチ)で実行できる。   http://forest.watch.impress.co.jp/docs/news/744023.html   「FFmpeg 3.0」が公開、ネイティブAACエンコーダー採用でライセンス問題を緩和 - 窓の杜   (2016/2/17)からのリンクで   https://ffmpeg.zeranoe.com/builds/   Download FFmpeg for Windows   Builds - Zeranoe FFmpegより   ・Version: 20170214-8fa18e0 (3.2.2 も有る)   ・Architecture: 32-bit (62-bit も有る)   ・Linking: Static (exe for each program)(Shared,Dev も有る)を指定し,ffmpeg-20170214-8fa18e0-win32-static.zip (41.0 MB)をダウンロードした。, 動画の有るフォルダ KOJIEN\MOVIE に,ffmpeg.exe と下記バッチファイル(例:test.cmd 。メモ帳かテキストエディタで作成)  for %%i in (*.) 109 0 obj !―犬、猫、フェレットからサイチョウ、カメレオン、ベルツノガエルまで, GARMIN(ガーミン) マップソース日本道路地図(シティーナビゲーター) 1067100, GARMIN(ガーミン) イートレックス・レジェンドC 日本語版 010-00358-07, 杉本 智彦: カシミール3D パーフェクトマスター編(Windows対応)―山と風景を楽しむ地図ナビゲータ, 杉本 智彦: 山と風景を楽しむ地図ナビゲータ カシミール3D GPS応用編 Windows対応 [CD-ROM 2枚組], 永井 豪: AMONデビルマン黙示録 6―THE DARKSIDE OF THE DEVILMAN (6), 永井 豪: AMONデビルマン黙示録 5―THE DARKSIDE OF THE DEVILMAN (5), 永井 豪: AMONデビルマン黙示録 4―THE DARKSIDE OF THE DEVILMAN (4), 永井 豪: AMONデビルマン黙示録 3―THE DARKSIDE OF THE DEVILMAN (3), 永井 豪: AMONデビルマン黙示録 2―THE DARKSIDE OF THE DEVILMAN (2), 永井 豪: AMONデビルマン黙示録 1―THE DARKSIDE OF THE DEVILMAN (1), 小さき勇者たち~ガメラ~ DTSメモリアル・エディション1965-2006 (初回限定生産), 国土交通省河川局河川環境課: 河川水辺の国勢調査年鑑(河川版) 鳥類調査、両生類・爬虫類・哺乳類調査、陸上昆虫類調査編〈平成11年度〉, 中山 沙織: マンガ小動物暮らしマニュアル 暮らしと遊び編―ハムスター、ウサギ、フェレットのベストライフブック, 中山 沙織: マンガ小動物暮らしマニュアル 医学編―ハムスター、ウサギ、フェレットのベストライフブック, 中山 沙織: マンガ小動物暮らしマニュアル 飼育編―ハムスター、ウサギ、フェレットのベストライフブック, バレリー・オファレル/武部 正美: プロブレム・ドッグ―愛犬をりっぱな犬にする方法. xref その他  |4. <> <>/PageLayout/OneColumn/PageMode/UseNone/Pages 104 0 R/Type/Catalog/ViewerPreferences<>>> わが家のスマホルール」【小学生~高校生まで対応】 (TJMOOK), 20200211 : 「ちょっと検索!翻訳に役立つGoogle表現検索テクニック」, 20200216 : Solid Explorerへ乗り換えた(ESファイルエクスプローラ プロから), 20200325 : 「学習英英辞書の歴史 パーマー、ホーンビーからコーパスの時代まで」, 20200502 : 「YouVersion」で,神の名の載っている聖書を探した(YouVersion以外でも試行), 20200506 : BBN聖書放送とTWR360/Thru The Bible Global(音声解説付き聖書朗読), 20200509 : Google Playストアの「BBN聖書放送(Bible Broadcasting Network)」へのレビュー追加, 20200517 : iPhoneの優位性:アプリの供給,安定しているかも(とくに辞書アプリ)~Androidで使えなくなったアプリの一覧, 20200520 : 耳を塞がない(周りの音が聞こえる)Bluetoothヘッドホンの検討, 20200607 : PDFは固定レイアウトだけじゃなくリフロー(reflow)表示できた!, 20200907 : Bible.isのストリームURLがわかった!(Android4.0.4で再生可能に), 20200913 : スマホのラジオアプリで目覚まし(2) XiiaLive:起床後一定時間後に放送局を変える, 20200917 : 「羊飼いラジオ」(Hitsujikai Radio,Hitsujikai RS), 20201021 : インターネットラジオ(Pro)Alexandr Sotnichenko版, 20201112 : Community Radio Browserのデータベースを使うラジオアプリ「RadioDroid 2」,「Castbox」, 20201113 : SoundSeederでキリスト教関連ラジオ6局を各部屋スマホで同期再生する, 買った本~日本爬虫両棲類学会第57回相模原大会・SCAPARA(爬虫類と両生類の臨床と病理のための研究会)第17回ワークショップ共催にて, 「ハムスペ」に載ってるフェレットと亀のマンガ(2001年10月号~2006年11月号), 「NHKむしまるQゴールド大集合! 」, ・・・風雪の為に、垣も大分破損んだ。毎年聞える寂しい蛙の声が復た水車小・・・ 島崎藤村「岩石の間 128 0 obj 要約 1 研究の目的(問題の所在) 減価償却資産における「機械及び装置」及び「器具及び備品」の区分については、償却限度額の計算や租税特別措置の対象資産として用いられるなど、いずれの資産区分に該当するかについては幅広い場面で活用されている。 do ffmpeg -i %%i -f mp4 %%i.mp4  pauseを実行。拡張子なしの古いファイルは削除(実際は別のフォルダへ移動)。変換後の101個のMP4ファイルをAndroidへ持っていって(上位フォルダ名は漢字でなく英数字にして),EBPocketで開いたところ,無事動画が表示された。動画のファイルサイズの合計は123MB→69MBになった。, ちなみに,FFmpegの変換時に出力された内容から,元の動画ファイルの属性もわかる。, (例)Input #0, mpeg, from '05000100':  Duration: 00:00:14.88, start: 0.743156, bitrate: 357 kb/s    Stream #0:0[0x1e0]: Video: mpeg1video, yuv420p(tv), 320x240 [SAR 200:219 DAR 800:657], 340 kb/s, 29.97 fps, 29.97 tbr, 90k tbn, 29.97 tbc, EBPocketでは,登録辞書数が多いと,起動や検索がかなり遅い。搭載メモリが512MBと少ない BOOX C67ML Carta や BoyueT62D では起動途中で落ちるなど深刻。辞書ファイル自体はそのままで,グループ編集(Group#1,Group#2,・・・)で辞書タイプを分けることで,各々の登録辞書数を減らしたら,起動問題や串刺し検索(2度目以降)は解決した。もっとも,専用アプリ(計測技研)ではさすがにその問題はなく,安定して使える。また,「使用許諾条件」も気になるところだ。PC版で使った方が使い勝手はよさそうだ。, EBWin4なら(当方5年前に5万円で買ったAMD,メモリ4ギガのPCだが)十分速い。ただし,Android版で,2017-02-16の「1.37.0」で追加された「検索に一致した全項目表示」(全ての項目の表示)機能は大変便利なので,EBWin4にも追加してほしい気がする。(と思ったら,Windows版も更新されてた! 手動で新zipをVectorからダウンロードし,上書きインストールした。右下のステータスバーに「全ての項目」のチェックボックスが追加されてる! 当方,当初 2016/11/17 4.3.5 を使用してたので,気づかなかった!)   2017/02/08 4.4.1    複合検索ダイアログをモードレス化,    全ての項目の表示,    ステータスバーに前ページ、次ページボタン追加,他(略)   2017/02/14 4.4.2    連続表示/項目毎表示ボタン,辞書選択ComboBoxの幅調整2/8の更新履歴の説明に,「ステータスバーに全ての項目ボタン追加」ってのが抜けているかも。ちょっと探した。, あらためて探してみたら,下記が詳しかった。  http://baldhatter.txt-nifty.com/misc/2017/02/ebwin41-6be0.html  禿頭帽子屋の独語妄言 side A- # EBWin4の新機能「全ての項目」表示~その1  http://baldhatter.txt-nifty.com/misc/2017/02/ebwin42-f9a9.html  禿頭帽子屋の独語妄言 side A- # EBWin4の新機能「全ての項目」表示~その2  2017.02.12, 以下のサービスがあるようだ(未試行)。2015-12-19に調べたものをベースに,今回確認したことを記す。, (1) ドコモ公式/スゴ得コンテンツ( https://www.dcm-b.jp/ ), 「約180種類のコンテンツ使い放題」(2017-02-19時点)   https://www.dcm-b.jp/cs/contents/   カテゴリ一覧の「学習/辞書/教養」に「広辞苑forスゴ得」がある。料金は,月額380円。   https://www.dcm-b.jp/cs/cpsite.html?id=01cpn054001, ちなみに,2015年当時確認していた   http://kojien.mobi   http://sp.kojien.mobi (WiFi)   モバイル版「広辞苑」のうち,2つ目( http://sp.kojien.mobi )だけまだ生きていそうだ。というか,上記「広辞苑forスゴ得」のページで「ページのソースを表示」(Chrome)させたら, http://sp.kojien.mobi の機能を使ってるような感じだ。   http://sp.kojien.mobi/login_top.html   有料登録にて、検索機能をご利用いただけます。として,「ログイン方法」に,「docomoIDでログイン」,「au IDでログイン」,「MySoftBank認証でログイン」のボタンがある。   http://adto.jp/iwanami/view/s.php?a=472   【重要なお知らせ】マイメニュー引継ぎされたお客様へに,「本サイトはiモードからのマイメニュー引継ぎ対応サイトです。iモードで当サイトのマイメニュー登録を行っているお客様は、スマートフォンへ機種変更後も当サイトのマイメニュー会員が継続されております。」とあり,|1.スマートフォンにおけるメニュー名:「広辞苑」|2.ジャンル:メニューリスト > 便利ツール/写真/辞書/学習 > 辞書|3.提供コンテンツ概要(予定含む):現在iモードでご利用可能な| コンテンツは、全てスマートフォンでも利用可能。| ※ご注意※| スマートフォンでは、iモードでご利用の「Myワード」「検索履歴」の| 内容は継承されません。|4.価格:月額108円(初月無料)|5.対応OS:Android OS 2.1以上搭載のAndroid端末といったことが書かれている。, 当時はこのdocomo「dアカウント」( https://id.smt.docomo.ne.jp/ )を取得して月100円+税 で広辞苑を使うことも考えたが,WEBブラウザでいちいち単語入力して検索するのは遅いし,使いづらいと考え,結局,amazon appsで計測技研のAndroidアプリを購入することに決めた次第。, 2015年当時 https://www.iwanami.co.jp/hensyu/degi/mobile/mobile.html に説明があったはずなのだが,今はリンク切れ(Not Found)となっている。岩波書店のトップ( https://www.iwanami.co.jp/ )から検索しても見つからない。, 広辞苑AndroidアプリをWindows上で使う手法もある。Windows7時代にBlueStacksを使用していた時期があった(2014-05-11~2015-05-11)。   http://midorigame-ferret.cocolog-nifty.com/blog/2015/02/kindle-for-pc-b.html   20150201 : Kindle for PC 日本語版ついに登場/BlueStacks App Playerの解像度変更(レジストリ)でのKindle/巨大Android「HP Slate 21」など, 結局,Kindle for PCが日本語書籍にも対応(2015-01-21)したことから,BlueStacks上でKindleのAndroidアプリを使う意味がなくなり,1年毎の有料会員を更新しなかった。そして,Windows8を購入してHDD完全初期化し新規インストールした際(2015-05-16)に,BlueStacksはインストールしなかった。その後Windows10化(2016-07-22。アップグレードではなくカスタムで新規インストール)した際もBlueStacksはインストールしなかった。, BlueStacksは,無料会員だと毎日勝手にアプリが追加インストールされるため,別に(専用に)Googleアカウントを取得して使っていたが,amazon appsやKindleならIDが別管理なので問題はなかった。amazon appsの広辞苑Androidアプリも同じ。とはいえ,鬱陶しくて結局は有料会員になったのだが。, 今更BlueStacksをインストールしなおして使う気にはなれなかった。月2ドルだからそれほど高額という訳でもない。無料会員で勝手に追加インストールされた不要アプリは消せばよいだけの話だ。Google Playも以前と違って,購入済みアプリも一覧から削除できるようになっているし。ただ,まぁ,エミュレータ起動は若干手間がかかるし,PC版よりAndroid版の方が圧倒的に使い勝手がよい,という訳でもない点かな。, あらためて探してみたところ,下記の記事があった。BlueStacksもバージョンアップして,機能強化されたらしい。   https://nelog.jp/bluestacks-2-install   PCでAndroidをマルチタスクで使えるエミュレーター「BlueStacks 2」のインストール方法|Windowsでの使い方   2016/10/7, 【7.その他の参考資料】http://baldhatter.txt-nifty.com/misc/禿頭帽子屋の独語妄言 side Aより  http://baldhatter.txt-nifty.com/misc/2015/06/ebwin4-69ae.html  禿頭帽子屋の独語妄言 side A- # EBWin4、地道にバージョンアップ継続中  2015.06.22  「LogoVista版タイトルの外字対応が、Jammingよりだいぶマシ」    http://baldhatter.txt-nifty.com/misc/2016/07/ebwin4web-e476.html  禿頭帽子屋の独語妄言 side A- # EBWin4でWeb検索―実はなかなか便利だった  2016.07.06    http://baldhatter.txt-nifty.com/misc/2016/07/logophile-7e5c.html  禿頭帽子屋の独語妄言 side A- # Logophileのみ対応している辞書タイトル  2016.07.10    http://www.buru3.com/electronic-dictionary/  スマホやiPhoneを電子辞書化する。 - 中国語を学ぶ-ん, http://www.buru3.com/中国語を学ぶ-ん - あまり考えずに楽しんで学ぶ中国語より  http://www.buru3.com/ebpocket-ios/  EBPocketでいろんな辞書を活用。 Wikipediaのオフライン辞書化も。 - 中国語を学ぶ-ん    http://www.buru3.com/ebpocket-android/  EBPocket(Android編) - 中国語を学ぶ-ん    http://www.buru3.com/cross-search/  アンドロイドで、EBPocketやMDict、その他もろもろ横断検索!ランチャーアプリで更に使いやすくなるよ。 - 中国語を学ぶ-ん, http://kazuo.fc2web.com/dic/ddwin2.htm更に極めよ「EPWING/PDIC辞書」※ 目次より:「EPWING辞書作成、変換ツール」,「EPWING変換スクリプト集」,「EPWING、PDIC変換スクリプト各種辞書」,「変換トラブル」,「EPWING辞書にコーパスと文法書を加える」,「EPWING辞書軽量化」,「DDwin, PDIC辞書検索のコツ」,「複数の辞書の圧縮をした際のデータサイズの例」,「Meadow, Emacs」,「変換スクリプトを作りたい人向け」など。, http://www.motorwarp.com/koizumi/dictionalies.html辞書だらけ作成:2008/10/01,更新:2008/12/11,2009/07/14※ 目次より:「フリーの辞書検索ソフトと辞書,オンライン辞書・事典」。リンク集。, http://home.att.ne.jp/blue/onback/On the Backstage 翻訳者のための情報源より  http://home.att.ne.jp/blue/onback/biblio/dictionary.html  On the Backstage 翻訳者のための情報源 【書誌(語学編)】辞書  ※ 目次  |1. 」, ・・・価格の変動でだんだん欠損になって、どうにもしかたなくなったのです・・・ 宮沢賢治「ポラーノの広場 「しづらい」と「しずらい」、どちらが正しい使い方なのでしょう?読み方が同じだけに、間違って書かれることも多い語句です。ここでは「しづらい・しずらい」の正しい使い方を詳しく解説していきます。どちらが正しいのか迷ったときのために、効率的な覚え方もご紹介しましょう。

<>/ProcSet[/PDF/Text]/XObject<>>> 私は、ルーブル美術館所蔵の「サモトラケの二ケー」像が、子どもの頃から大好きです。 頭部と腕がないことが、かえって、なんとも言えない動的魅力を醸し出しているように思えてなり... 原発事故についての興味からいろいろ読んでいるのですが、ひとつ疑問が。 核融合あるいは核分裂の際に生ずる「質量欠損」は、一体何が「減って」しまったのでしょうか。 まさか素粒子... 質量分析計で測定した Li の質量は6.01512 amu であった。Li の質量欠損をamu 単位で示しなさい。ただし陽子、中性子、電子の質量はそれぞれ1.007276 amu,、1.008665 amu、 0.000549 amu である。(Liの質量... gooIDでログインするとブックマーク機能がご利用いただけます。保存しておきたい言葉を200件まで登録できます。, 太宰治「おさん 106 23

」, ・・・惜しい哉羽目板だから破損したかあるいは雨晒しになって散三になって・・・ 内田魯庵「淡島椿岳 」, 内田魯庵「淡島椿岳 」, 宮沢賢治「ポラーノの広場 →後者「アジア・太平洋戦争」何だかヘン。発音もしにくい。大東亜戦争が〈日本帝国主義の立場から〉最も適切だが、これが endobj <<80AF82EABF210E6F6C081094048D012F>]/Info 105 0 R/Prev 283374/Root 107 0 R/Size 129>> のように拡張子が無いファイル)を,拡張子なし→拡張子.MPGに変名してもダメ(Windows10では.MPGに変名すると,エクスプローラから単独再生可能。また,EBWin4からも問題なく利用できる。Logophileでは動画再生不能になるため,元のファイル名のままとすること)。, 結局,動画変換ツール(FFmpeg)を使って,MPEG1(ファイルに拡張子なし)→MPEG4(拡張子.MP4)に変換する必要があった。また,フォルダ名も日本語(漢字)を使うとダメで英数字(ローマ字)に変更した。なお,動画以外の音声(音楽)・写真は問題なし。   http://ebstudio.info/manual/EBPocket_android/81faq.php   EBPocket for Android FAQに,|Q.

琉球伝統芸能デザイン研究室や琉球びんがた普及伝承コンソーシアムなどで構成する「Una―」プロジェクト実行委員会が実施した。同プロジェクト実行委員長の山内昌也県立芸術大学教授が、第二尚氏の歴代国王が眠る墓前に、首里城再建への思いとともに歌, 東京都渋谷区で俳優の伊藤健太郎容疑者(23)がバイクと衝突し、ひき逃げした疑いで逮捕された事件で、伊藤容疑者の車の左前部が破損していたことが30日、警視庁への取材で分かった。Uターンして対向車線へ入った際、直進のバイクと衝突しており、警視庁は伊藤容疑者の前方不注意が事故原因とみて調べている。 107 0 obj 興味ある言語のレベルを表しています。レベルを設定すると、他のユーザーがあなたの質問に回答するときの参考にしてくれます。, 相手に通知されません。 (11/15更新). endobj mata , sokonai kizutsukeru koto .

startxref

CD-ROM版、DVD-ROM版辞書一覧  |3. 113 0 obj endobj 」, 島崎藤村「岩石の間 endstream <> 警視庁は同日午前、東京地検に送検した。伊藤容疑者を乗せた捜査車両は、カメラの, gooIDでログインするとブックマーク機能がご利用いただけます。保存しておきたい言葉を200件まで登録できます。, 泉鏡花「一景話題 ta ・ hason : senjitsu , koujou no kikai ga hason si ta . Check TN006/オーム電機)(追記9/23), 20060923 : 亀の甲長を測るには ~ 曲がり尺(L字型定規)を2つ組み合わせてノギス代わり, 20060930 : フェレットとの散歩の状況/亀の生息地を地図にプロットする(ハンディGPS)(2) GPSホルダーを作る, 20060930 : 亀のラジオ番組をタイマー録音しメモリオーディオで聴く(2)Podcast+iTunes+iTunes Agent (10/1更新), 20061010 : 「ハムスペ」に載ってるフェレットと亀のマンガ(2001年10月号~2006年11月号), 20061020 : 買っちゃったよ,特売メモリオーディオ(X-Bar XB800 四千円也)(フェレットをPodcast+iTunes+iTunes Agent), 20061022 : フェレットとの散歩の状況/亀の生息地を地図にプロットする(ハンディGPS)(3) アニメーションGIFで軌跡表示, 20061029 : メモリオーディオ(MP3プレーヤー/デジタルオーディオプレーヤー)の比較サイト, 20061101 : FMトランスミッター内蔵 SDミュージックプレーヤー my mint HS.Z01, 20061119 : 亀の音楽で朝起きる ~ SDクロックラジオ Qriom SCR-175SD, 20061201 : 最近のポッドキャストのお気に入り(科学番組・書籍紹介・公開講座・ニュース・朗読)(2006-11-30), 20061207 : 「充電式 使い捨てないカイロ eneloop」(サンヨー)を注文した!, 20061212 : 届いた!「充電式 使い捨てないカイロ eneloop」(サンヨー)(冬のフェレットの散歩に最適な懐炉), 20070128 : 背中に懐炉で暖かく ~風邪引き中年の工夫~ フェレットの散歩時だけでなく日中も背中カイロで暖かく過ごすのだ。, 20070201 : 続)特売メモリオーディオ ~ 4機種の使い分け。便利な点と不便な点が見えてきた, 20070202 : NHKカルチャーアワー人と自然「昆虫と植物の世界」:第16回(2007-01-22)木村義志/外来動物の現実と社会 で,アカミミガメ,ワニガメ,カミツキガメなどの話, 20080630 : 番外編:歩きながら聴く聖書「聖書 新共同訳 旧約聖書続編つき MP3版」, 20080701 : 番外編:歩きながら聴く聖書2~オンライン聖書テキストをMP3化する, 20080705 : 昨年2007年のフェレット散歩日数を数えてみた(晴れの日8割は散歩に出てたことが判明), 20080706 : 番外編:ゼンマイ時計(スケルトンタイプのゼンマイ式アラームクロック/6歳児用組み立て式ゼンマイ振り子時計スケルトン/学研大人の科学・14世紀型棒テンプ重錘式時計・組立式), 20080708 : ブログ設定変更。及び トラックバックの安全性確認のために,事前に(アクセス前に)ソース表示できるサイトを調べてみました。, 20080826 : 2008-08-23~24,第10回日本カメ会議参加&発表報告「ミドリガメの謎」, 20090126 : 番外編:歩きながら聴く聖書3「新世界訳聖書 オーディオファイル」, 20110816 : 「Collinsコウビルド米語版英英和辞典」ソフト欠点解消(Logophile他), 20110819 : 「Collinsコウビルド米語版英英和辞典」ソフト欠点解消2(設定を変えるだけ), 20110824 : 亀水槽のフィルター新調(水作エイトM×2→水作ニュースペースパワーフィットM+スペースエアフィットM), 20110826 : 番外編:歩きながら聴く聖書4:容量の小さい小型MPプレーヤー用に変換する, 20110910 : 番外編:Windows7でレガシーデバイス(古い周辺機器)を使う, 20111106 : ルート・目印確認!埼玉県立川の博物館へ鉢形駅から徒歩のコース(第13回日本カメ会議2011年12月10日・11日), 20111204 : 今度は近道ルートを試してみた:続)ルート・目印確認!埼玉県立川の博物館へ鉢形駅から徒歩のコース:近道ルート(第13回日本カメ会議2011年12月10日・11日), 20150113 : 続)Collinsコウビルド米語版英英和辞典(今度はKindle版), 20150123 : 続)英英和辞典・英英辞典(Kindle・Android版比較), 20150124 : 続2)英英和辞典・英英辞典(Kindle・Android版比較), 20150126 : Kindle Paperwhite 2012のファームウェアのバージョンダウン(5.4.4.2→5.3.9)について, 20150201 : Kindle for PC 日本語版ついに登場/BlueStacks App Playerの解像度変更(レジストリ)でのKindle/巨大Android「HP Slate 21」など, 20150621 : 6/25(木)22:55NHK総合「所さん!大変ですよ」にミドリガメ登場, 20150623 : 格安スマートフォン freetel priori2 3G版 FT142A と LTE版 FT151A との違い:SDカードの扱い,PCとのUSB接続(Android 4.4.2 と 4.4.4 との違い),「b-mobile SIM 高速定額」による通信速度,その他, 20150624 : 補足:freetel priori2 3G版 FT142A と LTE版 FT151A との違い:「b-mobile SIM 高速定額」による通信速度, 20150625 : 補足その2:freetel priori2 3G版 FT142A と LTE版 FT151A との違い:「b-mobile SIM 高速定額」による通信速度(生データ), 20150626 : 感想:6/25(木)22:55NHK総合「所さん!大変ですよ」にミドリガメ登場, 20150708 : 英語学習:Flixsterで英語字幕をテキスト化する(映画「パシフィク・リム」), 20150709 : ヴァン・ヴォークト「宇宙船ビーグル号の冒険」の原著をKindleで読む, 20150820 : 新世界訳聖書(JW Library)の日本語化対応を機に,目の疲れにくい電子ペーパー(E-ink)式のAndroid端末を探す(1)~OnyxBooxC67ML_Carta, 20150821 : 続)新世界訳聖書(JW Library)の日本語化対応を機に,目の疲れにくい電子ペーパー(E-ink)式のAndroid端末を探す(1)~OnyxBooxC67ML_Carta(訂正あり), 20150825 : BOOX C67ML_CartaのファームウェアV1.7.3 2015-08-19への更新と再インストール(訂正あり), 20150829 : JW Library 1.5.1_210/1.5.2_212(Android版)のデータの保存先や挙動について, 20150830 : BOOX C67ML_Carta V1.7.3 アプリインストール手順詳細, 20150831 : 電子ペーパー(E-ink)式のAndroid端末を探す(2)~BoyueT62D, 20150904 : Boyue T62D(T62+)で,Googleドライブ問題解決(ESファイルエクスプローラーのクラウド機能), 20150906 : 続)Boyue-T62D (T62+) で,Googleドライブ解決(File Commander + Cloud), 20150914 : BOOX C67ML_CartaでアプリとデータをSDHCカードへ移動する(root化後Link2SD Plus導入), 20151010 : Amazonアプリ・アプリストア・Androidアプリストア・ショッピングアプリの違いと2千円クーポン, 20151010 : FREETEL SIMとSMARTalkを組み合わせて留守番電話機能を実現する(音声を添付したメールを自動送信), 20151111 : 第3回淡水カメ情報交換会参加と環境省ニホンイシガメの輸出規制のパブリックコメント(2015年11月11日まで), 20160301 : NHK地球ドラマチック「カメ 3億年の進化の旅」NHKオンデマンドで2016/3/5までなら見れるよ, 20160311 : 誤入力を自動訂正してくれる「Fleksy」(フレクシー),癖と注意点, 20160312 : JW Libraryの肥大化問題解決のため,Boyue T62D でLink2SD Plusをつかうべくroot化とGooglePlay導入(成功)。しかし・・・, 20160313 : 楽天KoboのAndroidアプリが勝手にログアウトされ,ダウンロード済み書籍と栞が消えてしまう件, 20160326 : 英語学習:Flixster v2.6.1で英語音声&英語字幕でダウンロード(映画パシフィック・リム), 20160424 : 記事紹介:2016-04-22環境省:野生ミドリガメの生息個体数の推定/アカミミガメ対策普及啓発ツールの公開「かめぐるみ」他, 20160501 : アルキキを試し,Podcast,読み上げ対応RSS Readerに至る(Android), 20160502 : 続:アルキキを試し,Podcast,読み上げ対応RSS Readerに至る(Android):詳細・補足編, 20160506 : フェレット・カムイ(4代目)の思い出(2): 2016-03-06(日),電車で移動中にメモしたもの, 20160508 : フェレット・カムイ(4代目)の思い出(3): お迎え(2009-01-03)からジステンパー予防接種後の皮膚病からの回復、GW後(2009-05-05)まで, 20160514 : フェレット・カムイ(4代目)の思い出(4): 2009-05-06~2009-10-09, 20160515 : フェレット・カムイ(4代目)の思い出(5): 2009-10-10~2010-04-17, 20160520 : 偽アプリに一杯食わされた:Amazon Apps「Fleksy + GIF Keyboard」(開発者ILINK), 20160522 : JW Broadcasting MP4字幕再生成功(Media Player Classic/Windows8.1), 20160523 : JW Broadcasting MP4字幕再生&倍速再生成功(VLC for Fire/VLC for Android), 20160526 : JW Broadcasting MP4字幕抽出成功(MP4BOX,Windows), 20160528 : jw.orgで字幕テキストの有る動画(MP4),および,字幕ファイル(SRT)の不要部分の削除手法, 20160604 : Kindle Fire 2015 でKindle本をSDカード保存できるようにするため5.1.4へ手動アップデートする, 20160605 : JW Library 1.7.1 起動せず。Kindle Fire 2015 の Fire OS 5.1.4アップデート後に?(訂正あり), 20160609 : Kindle Fire 2015(第5世代) で,PC(Windows8.1)認識不能(USB接続)が直った, 20160616 : JW Broadcasting MP4字幕再生成功(iTunes/Windows8.1), 20160616 : JW Broadcasting ビデオ・オンデマンド字幕表示成功(Windows8.1 IE11,Chrome), 20160616 : JW Library 動画のファイル名一覧とタイトル(題名),アルバム名の一覧を作る, 20160618 : 復旧:JW Library 1.7.1起動せず(Kindle Fire 5.1.4), 20160625 : JW Study Aid 4.0.2 (Android) を試してみた(EPUB対応), 20160627 : 続2:アルキキを試し,Podcast,読み上げ対応RSS Readerに至る(Android)のその後:朝日新聞RSS一覧~本文対応,ほか, 20160628 : 続3:アルキキを試し,Podcast,読み上げ対応RSS Readerに至る(Android):朝日新聞以外のニュースのRSS, 20160709 : DSi「睡眠記録めざまし時計」からスマホアプリ(Android)への移行検討:「Sleep as Android」が良さそう, 20160714 : フェレット・カムイ(4代目)の思い出(6): 2010-04-18~2010-08-29, 20160730 : 亀水槽のフィルター新調2~スポンジフィルターにカバーを付ける, 20160814 : フェレット・カムイ(4代目)の思い出(7):2010-09-05~2010-12-26, 20160815 : フェレット・カムイ(4代目)の思い出(8):2011-01-02~2011-12-29, 20160818 : フェレット・カムイ(4代目)の思い出(9):2012-01-03~2012-08-16, 20160823 : フェレット・カムイ(4代目)の思い出(10):2012-08-17~2012-09-22 社内報への掲載,尻尾ハゲ,散歩中の「星ナビ」での天体観測, 20160824 : フェレット・カムイ(4代目)の思い出(11):2012-09-24~2012-12-31 右目も白内障。Kindle Keyboardと洋書, 20160827 : フェレット・カムイ(4代目)の思い出(12):2013-01-06~2013-06-30 インフルエンザ,キャリー扉破壊,なめフェレ化進行,失禁,副腎疾患,お散歩用ヘッドライトの修理,亀の脱走防止柵強化(フェレット侵入防止兼用), 20160828 : フェレット・カムイ(4代目)の思い出(13):2013-07-06~2013-09-29:エアコン停止に備えて冷却材設置,砂が飛び散らないようにダンボールでケージを覆ったこと,等, 20160829 : フェレット・カムイ(4代目)の思い出(14):2013-10-06~2014-02-22:散歩中のへたりこみ,インド綿マットの失敗,背中の傷,大食,金曜日世話をしないで寝てしまうことが多くなり後の悲劇に,シリーズのまとめ, 20160912 : 新聞記事:アカミミガメの肉を具にしたレトルトカレー/ 書籍:『切らずに1枚で折る 爬虫類・両生類折り紙』, 20160914 : 書籍紹介:『亀のジョンソン』『カメリ』『竜宮城は二つあった ウミガメの回遊行動と生活史の多型』, 20160920 : 書籍紹介:「外来種は本当に悪者か? 新しい野生 THE NEW WILD」, 20161019 : 「獣医ドリトル」コミック版・登場動物一覧~ミドリガメ(アカミミガメ)とフェレットも結構載ってる, 20161027 : 解決:JW Library8.0がKindle Fire 2015(第5世代)で動かない, 20161103 : 爬虫類用蛍光灯とバスキングライト,まったく新しい取り付けを考案(延長アダプタと二股ソケットで分岐しアームライトに取り付ける), 20170211 : BoyueT62Dファームウェア更新で起動しなくなった際の復旧手順, 20170212 : 「エホバに歌う 新しい歌」136-154を,製本直送.comで製本化(パラメータの紹介), 20170213 : 製品同梱されてないデジタルカメラのマニュアルを,製本直送.comで製本化(ニコン COOLPIX W100,キャノン IXY 130), 20170214 : Kobo Touch入手。洋書で辞書とハイライトを,Kindle等と比較, 20170217 : 6インチタブレット用安全ストラップ(Security Hand Strap), 20170219 : 広辞苑を使う:Androidアプリ(2社),EPWING版(WindowsやAndroidで使う),ほか, 20170221 : 「ニンテンドー3DSガイド ルーヴル美術館」~気になる作品「アイン・ガザルの像」紀元前7000年頃, 20170223 : 英単語「見出し語当てゲーム」なら,「My Word Coach」(DS),「Test Your English」シリーズ(Android),など, 20170224 : 塩分補給に「ヘルスワイズ シーソルト(詰替え用)」が粒が大きく,持ち運びやすい, 20170225 : 「Twilight」へ「超ブルーライト削減」から乗り換え(Android), 20170226 : 海外版DSソフト購入:amazon.comで個人輸入代行業者を使う/海外ショップの利用, 20170227 : 英単語「見出し語当てゲーム」その2:「futureU」と「My SAT Coach with The Princeton Review」(Nintendo DS), 20170228 : 「見出し語当てゲーム」その3:「意味までわかる 大人の熟語練習 角川類語新辞典から5万問」,「読みトレ」(Nintendo DS), 20170301 : JW Broadcasting MP4字幕再生成功(VLC/Windows10), 20170303 : Google本なら洋書を(購入しなくても)全文検索できる。和書もいずれ追随?, 20170304 : オンライン辞書の横断検索(英和・英英):「terrapin」を例に, 20170306 : FAX専用機はプリンタの代わりになるか? (Panasonic KX-PD604D), 20170308 : MP3プレーヤー廃棄と「音楽フォルダプレーヤー(Music Folder Player)」,「天下一読高級版(Moon+ Reader Pro)」,「Speaker for RSS」(Android), 20170309 : 2,980円で中古のKindle Paperwhite(WiFiモデル,2013年式)入手, 20170311 : 食べてみた。アカミミガメのケイジャンカレー(アメリカ南部風), 20170408 : 亀の煎餅(せんべい)~実は意外に歴史のある菓子だった(1862年,江戸は文久二年), 20180113 : オンライン辞書の横断検索アプリ(「All英語辞書, English ⇔ Japanese」:COBUILD英英,Cambridge英英和,Weblio,英辞郎,ほか英和・英英), 20180122 : Google Play ブックスの読上機能に驚く(Kindle+TalkBackより上だ), 20180123 : 目に優しいグレースケール(モノクロ画像)をAndroidやWindowsで, 20180124 : ニッケル水素充電池の容量を測定することのできる充電器「MiBOXER C4」。100mA刻みで800mAまで指定可能。, 20180125 : ウイルス対策ソフトのバグで端末初期化(全アプリ・データの再インストール)を余儀なくさせられた, 20180126 : 最新カプセルホテルにはACコンセントなくUSB充電口があるだけだった:USB単三充電器兼モバイルバッテリー, 20180128 : Cambridge英英和辞典をMoon+Reader(天下一読)で, 20180130 : FSKARENがBOOX C67ML Cartaに合うようだ, 20180203 : SH-05E~2千円の中古スマホでトーキングクロック(音声時計), 20180204 : ToDoリスト(Google Tasks連携)のAndroidアプリ「When.Do」:階層化・折り畳み機能あり!, 20180205 : スマートフォン「脅威が見つかりました」FotaProvider:Android/Autoins.AK, 20180210 : 「Darker Pro」と「Twilight Pro」,「超ブルーライト削減」の比較(Android), 20180211 : Googleプレイブックス「オーディオブック」を初購入~宮沢賢治74作品34時間を750円で, 20180212 : オーディオブック以外に朗読を聞く方法(「宮沢賢治」で。「音声同期Epub」,YouTube,ほか), 20180214 : Android5.0.2/4.2.2/4.0.4での電子書籍対応状況を確認(Google Playブックス・朗読対応/Kobo/Kindle), 20180215 : 3DSのフェレット・ゲーム「かわいいペットとくらそう! わんニャン&ミニミニアニマル」, 20180216 : 3DSテーマ「THE FERRET」(Artlist Collection), 20180218 : Androidスマートフォン再インストール:FREETEL Priori2 3G(FT142A)。富士通 ARROWS X F-10D, 20180219 : Android端末選定:「デフォルト書き込みディスク」がSDカードを選べるかどうかも重要だ, 20180220 : 広辞苑を使う(2)月額制「ウルトラ統合辞書」「ATOK Passport プレミアム」, 20180223 : 1~3分で測定可能な,電池の要らない体温計~水銀タイプでなく,薄型で測定時間が短い。ほか,手回し発電機内蔵の電子体温計とか。, 20180225 : Google Play ストアに有るアプリの更新履歴や旧版はどこ?(Android4.0.4用アプリを探す), 20180228 : パタパタ時計(AUTO FLIP CLOCK)~視認性が良く,音の静かな時計を求めて(ベッドサイド), 20180301 : 夏,頭が涼しい枕の工夫(Air InPilow /扇風機!), 20180303 : シャープペンのこだわり~「クラッチポイント」,「ダブルチャック」,「トップチャック」,「ツインチャック」,「先端チャック方式」, 20180304 : 画像非表示,2画面表示可能なWEBブラウザ「Dual Browser」(Android4.1以上), 20180307 : Amazonカスタマーレビューへ投稿:ARROWS X F-10D docomo [Black], 20180311 : aGrepとGoogleDrive(Android:全文検索),KWIC Finder(Windows), 20180316 : 踏み抜き防止インソール中敷&小指保護樹脂先芯入り安全靴,それと加水分解の話, 20180317 : docomoのガラケーをスマホへ移行。ヘッドホンの話を少々。, 20180320 : 旅行で持っていった電子機器(約3キロ。1キロは減らせたなぁ), 20180321 : Cambridge英英和辞典を,Windows10アプリやChromeの文字列範囲指定→マウス右クリックで使う, 20180325 : Cambridge英英和辞典を「サポテキ」(SupportText)で, 20180326 : Google Play ストアに有るアプリの更新状況をチェックする(Wish Registry), 20180328 : Cambridge英英和辞典をWindows10で(その2)Chrome拡張機能「Search Center」, 20180331 : PCからAndroidをリモート操作「Vysor」。ほか,Mobizen,MirrorGo,AirDroid,TeamViewerなども試した, 20180401 : 読書に利用できるサイトの試行(1)Readee(続):PCで使うための周辺ソフトの価格比較, 20180403 : KindleバージョンとAndroidバージョンとの対応:米国住所のアカウントでGoodreadsのボタン・機能表示のできるKindleアプリが使えるAndroidバージョンはどれから?, 20180415 : Cambridge英英和辞典をWindows10で(その3)「QuickAction」と「EBWin4」, 20180416 : 「パシフィック・リム:アップライジング」 (Pacific Rim Uprising)を見てきた。, 20180422 : 「パシフィック・リム:アップライジング」 (Pacific Rim Uprising)のノベライズ版読了。読み上げ機能の考察。, 20180427 : 楽天の読書管理アプリ「Readee」の海外展開はどうなっているのだろう?, 20180428 : ウイルス「TrojanDownloader:JS/Jesdow.B!url」が,Windows10標準機能で検出された, 20180504 : Google純正のToDoリストアプリ(Android)が登場。でも,ダメだった。階層化に対応していない。, 20180508 : スマホのWiFi不調のときのチェックリスト(Android), 20180509 : ウチにも来た偽装メール「【楽天市場】注文内容ご確認(自動配信メール)」, 20180516 : Google Play ストアに有るアプリの更新状況をチェックする(DiffBrowser), 20180517 : FREETEL SIMサイズ変更と速度調査(FREETEL節約モードはLTEより3Gが高速), 20180520 : Qriom YVR-R301(AM/FM RADIO RECORDER)を姪にゆずった, 20180528 : Google Playでアプリ選定の際の注意点~「鏡」アプリを例に, 20180529 : レンジでゆで卵(4個タイプだが,3個タイプと同じくらいの高さで使い良い), 20180602 : 「Kindle for the Web」の無料サンプルを,Pocketアプリで読み上げる, 20180606 : 端子スライド型 マルチバッテリー充電器(YIBO YUAN LCD UNIVERSAL CHARGER MODEL:SS-5), 20180619 : Gmail添付ファイル受信不能→設定/アプリで「データ消去」・再設定で復旧。, 20180620 : docomo系MVNOならエリアメール(緊急速報)対応している?, 20180630 : Speaker for RSSが非公開になった(対応策は2つ), 20180702 : テキストエディタのマクロを使わず,Windowsの標準コマンド「findstr」を使った手法を追加(jw.orgで字幕テキスト抽出後の処理), 20180705 : 単三2本で作動する小型ワープロ OASYS Pocket(オアシス・ポケット), 20180707 : 父にKindle Fireを譲る(裏面に説明を書いたシールびっしり!), 20180712 : 時短ビデオ再び:Chrome拡張機能「Video Speed Controller」, 20180714 : Androidスマートフォン上でKindle本をAlexaで読み上げ可能になった(課題あり), 20180715 : Google Playブックスでしおり,メモ,ハイライトの一覧をファイルに保存する, 20180716 : 「ハヤカワ文庫SF総解説2000」で読みたい本・再読したい本の一覧, 20180720 : Terry Brooks 「Magic Kingdom for Sale--Sold!

Cold Leading トリック 5, ポケモンgo マタドガス スーパーリーグ 24, Vpn接続 Wi Fi 切れる 44, エドガー ケイシー ダイエット 11, 三軒茶屋 赤鬼 ブログ 4, アルセウス 配布 裏id 8, 続木美香 ショップチャンネル 退社 10, ポケモンxy ラプラス 育成論 7, 姫路 新店舗 美容院 7, フィッシャーズ マサイ 服 19, スカーレット 花 花言葉 40, まつ毛パーマ 癖 つく 10, ミサイルマン 西代 結婚 18, オグデン モロー アバター 6, ハイキュー 東京 代表決定戦 フル 12, 極真 大分 分裂 13, 私のおじさん 韓国 キャスト 4, スタイル ズ 荘の怪事件 感想 16, バイリンガール 炎上 2ch 55, ブローニング マクサス スコープ 30, 鈴木園子 パパ活 文春 37, 2009 Wbc 打率 8, 沢田慎 山口久美子 結婚 6, Cbc 永岡 結婚 相手 15, 快速 姫路行き 停車駅 5, キャプテン翼 漫画 無料ダウンロード 22, Mozu 1話 Dailymotion 43, おのだ 世界一周 ルート 13, ヒロアカ 嫌われ 夢小説 43, Iiyama マウスコンピュータ 違い 4, 福岡 桂川町 シーグラス 12, Vocal Synth2 使い方 13, 白石麻衣 私物 アクセサリー 11, スカイリム 魔法 弱い 10, 舌 ピ 静脈 4, 真 雀鬼 17 4, Unidays 学校 ない 21, 探偵ナイトスクープ 神回 レイテ島 10, 火ノ丸相撲 冴ノ山 堀 7, Ark レアフラワー ジェネシス 49, 青島 室井 関係 16, 鈴鹿サーキット 割引 生協 32, ポケモンgo アクティブユーザー 2020 12, 13th Netflix 感想 5, 白髪染め 市販 黒くなりすぎ 15, はためく 漢字 意味 7,